+ albertlash.com »  :::: Bollywood Zone » Bollywood Movies (Original Rips) » High Resolution Movies
|- Awarapan 2007 Hindi 1080p WEB-DL H264 DDP2.0 - NbT


10% SBI and 10% Discount

Awarapan 2007 Hindi 1080p WEB-DL H264 DDP2.0 - NbT

0 Members and 1 Guest are viewing this topic.

September 24, 2018, 03:00:31 PM
  • Global Moderator
  • Legend Member
  • *****
  • Topic Author
  • Thank You: 10068
  • Reputation: 2077
  • Activity:
    100%
  • Country: in
  • Posts: 5232
  • Topics: 4318
  • Join Date: Jan 2014
  • ıllıllı ѕмoĸιng ιѕ good ғor нealтн ıllıllı :)
Awarapan 2007 Hindi 1080p WEB-DL H264 DDP2.0 - NbT



Quote
General
Complete name               : Awarapan 2007 Hindi 1080p WEB-DL H264 DDP2.0 - NbT
Format                      : Matroska
Format version              : Version 4 / Version 2
File size                   : 5.10 GiB
Duration                    : 2 h 4 min
Overall bit rate mode       : Variable
Overall bit rate            : 5 855 kb/s
Movie name                  : Awarapan 2007 Hindi 1080p WEB-DL H264 DDP2.0 - NbT

 



Video
ID                          : 1
Format                      : AVC
Format/Info                 : Advanced Video Codec
Format profile              : [email protected]
Format settings             : CABAC / 4 Ref Frames
Format settings, CABAC      : Yes
Format settings, ReFrames   : 4 frames
Codec ID                    : V_MPEG4/ISO/AVC
Duration                    : 2 h 4 min
Bit rate mode               : Variable
Bit rate                    : 5 629 kb/s
Maximum bit rate            : 15.0 Mb/s
Width                       : 1 920 pixels
Height                      : 1 080 pixels
Display aspect ratio        : 16:9
Frame rate mode             : Constant
Frame rate                  : 24.000 FPS
Color space                 : YUV
Chroma subsampling          : 4:2:0
Bit depth                   : 8 bits
Scan type                   : Progressive
Bits/(Pixel*Frame)          : 0.113
Stream size                 : 4.90 GiB (96%)
Language                    : Hindi
Default                     : Yes
Forced                      : No
Color range                 : Limited
Color primaries             : BT.709
Transfer characteristics    : BT.709
Matrix coefficients         : BT.709

Audio
ID                          : 2
Format                      : E-AC-3
Format/Info                 : Enhanced AC-3
Commercial name             : Dolby Digital Plus
Codec ID                    : A_EAC3
Duration                    : 2 h 4 min
Bit rate mode               : Constant
Bit rate                    : 224 kb/s
Channel(s)                  : 2 channels
Channel positions           : Front: L R
Sampling rate               : 48.0 kHz
Frame rate                  : 31.250 FPS (1536 SPF)
Compression mode            : Lossy
Stream size                 : 200 MiB (4%)
Title                       : Hindi
Language                    : Hindi
Service kind                : Complete Main
Default                     : No
Forced                      : No







:download:

Quote


File Leeched & Uploaded From




Don't walk as you are king, walk as you don't care who the king is....!!
Never argue with an idiot. They drag you down to their level and then beat you with experience?

Share this topic on FacebookShare this topic on GoogleShare this topic on MySpaceShare this topic on TwitterShare this topic on Yahoo




Don't walk as you are king, walk as you don't care who the king is....!!

Thanks given by:


September 24, 2018, 04:01:59 PM
Reply #1
  • Team SSX
  • Legend Member
  • ***
  • Thank You: 2993
  • Reputation: 788
  • Activity:
    100%
  • Country: np
  • Posts: 1877
  • Topics: 1079
  • Join Date: Jul 2016
  • Love Forever !!
 :10on10:         :thank:           :thumbs:       :hukka:        :claps:

September 24, 2018, 04:55:27 PM
Reply #2
  • Semi Newbie
  • **
  • Thank You: 0
  • Reputation: 2
  • Activity:
    4.6%
  • Country: in
  • Posts: 42
  • Topics: 0
  • Join Date: Oct 2017
  • ShareSpark Member
Kya ...baat...kya..baat...kya  ...baat...... Super   .....se Upperrrr...... Thanks A lot @Ranvijay Bhaiìiiiiiiiiii 😘👌

September 24, 2018, 10:05:35 PM
Reply #3
  • Semi Newbie
  • **
  • Thank You: 0
  • Reputation: 2
  • Activity:
    4.6%
  • Country: in
  • Posts: 42
  • Topics: 0
  • Join Date: Oct 2017
  • ShareSpark Member
Video _is _cropped 😥😓

Need....Zeher...2005___Amzn_web_dl_ Original _print_ Within_10Gb    (No_crop_no_trim)

September 25, 2018, 07:49:42 PM
Reply #4
  • Hero Member
  • ***
  • Thank You: 0
  • Reputation: 7
  • Activity:
    8%
  • Country: au
  • Posts: 386
  • Topics: 0
  • Join Date: Oct 2017
  • ShareSpark Member

October 14, 2018, 07:09:15 PM
Reply #5
  • Devoted Member
  • **
  • Thank You: 0
  • Reputation: 6
  • Activity:
    34.8%
  • Country: in
  • Posts: 172
  • Topics: 0
  • Join Date: Sep 2018
  • ShareSpark Member

Tags:
 

Related Topics

  Subject / Started by Replies Last post
0 Replies
623 Views
Last post December 30, 2012, 08:42:10 PM
by sundarmobiles
5 Replies
1140 Views
Last post November 19, 2013, 06:25:13 PM
by maniksinghal18
0 Replies
629 Views
Last post January 25, 2015, 11:10:15 AM
by saifurbd94
0 Replies
378 Views
Last post March 28, 2018, 07:06:45 PM
by Special26
2 Replies
630 Views
Last post September 20, 2018, 12:34:42 PM
by Pashto Link




Back to top
Sitemap