+ albertlash.com »  :::: Bollywood Zone » Bollywood Movies (Original Rips) » High Resolution Movies
|- Mulk (2018) Hindi 1080p UntoucheD WEB-HD x264 AAC DD2.0


Mastercard 10% Off

Mulk (2018) Hindi 1080p UntoucheD WEB-HD x264 AAC DD2.0

0 Members and 1 Guest are viewing this topic.

October 02, 2018, 02:35:52 AM
  • Begginer
  • **
  • Topic Author
  • Thank You: 97
  • Reputation: 20
  • Activity:
    7.4%
  • Country: in
  • Posts: 89
  • Topics: 81
  • Join Date: Feb 2018
  • ShareSpark Member
Mulk (2018) Hindi 1080p UntoucheD WEB-HD x264 AAC DD2.0



Format                                   : MPEG-4
Format profile                           : Base Media
Codec ID                                 : isom (isom/iso2/avc1/mp41)
File size                                : 2.86 GiB
Duration                                 : 2 h 14 min
Overall bit rate                         : 3 043 kb/s
Writing application                      : Lavf58.17.103

Video
ID                                       : 1
Format                                   : AVC
Format/Info                              : Advanced Video Codec
Format profile                           : [email protected]
Format settings                          : CABAC / 4 Ref Frames
Format settings, CABAC                   : Yes
Format settings, ReFrames                : 4 frames
Codec ID                                 : avc1
Codec ID/Info                            : Advanced Video Coding
Duration                                 : 2 h 14 min
Bit rate                                 : 3 000 kb/s
Width                                    : 1 920 pixels
Height                                   : 1 080 pixels
Display aspect ratio                     : 16:9
Frame rate mode                          : Constant
Frame rate                               : 25.000 FPS
Color space                              : YUV
Chroma subsampling                       : 4:2:0
Bit depth                                : 8 bits
Scan type                                : Progressive
Bits/(Pixel*Frame)                       : 0.058
Stream size                              : 2.80 GiB (98%)
Writing library                          : x264 core 152 r2854 e9a5903

Audio
ID                                       : 2
Format                                   : AAC
Format/Info                              : Advanced Audio Codec
Format profile                           : LC
Codec ID                                 : mp4a-40-2
Duration                                 : 2 h 14 min
Bit rate mode                            : Constant
Bit rate                                 : 64.2 kb/s
Channel(s)                               : 2 channels
Channel positions                        : Front: L R
Sampling rate                            : 48.0 kHz
Frame rate                               : 46.875 FPS (1024 SPF)
Compression mode                         : Lossy
Stream size                              : 61.8 MiB (2%)
Default                                  : Yes
Alternate group                          : 1







Share this topic on FacebookShare this topic on GoogleShare this topic on MySpaceShare this topic on TwitterShare this topic on Yahoo



Thanks given by:


October 14, 2018, 01:06:21 PM
Reply #1
  • Devoted Member
  • **
  • Thank You: 0
  • Reputation: 6
  • Activity:
    19.4%
  • Country: in
  • Posts: 111
  • Topics: 0
  • Join Date: Oct 2016
  • ShareSpark Member

Tags: Drama Family 
 

Related Topics

  Subject / Started by Replies Last post
0 Replies
608 Views
Last post August 05, 2018, 06:59:28 PM
by shahzaibjaan
0 Replies
756 Views
Last post August 06, 2018, 10:55:49 AM
by ♥ Mann ♥
0 Replies
582 Views
Last post August 06, 2018, 12:47:36 PM
by RoBi007
0 Replies
931 Views
Last post August 06, 2018, 02:38:54 PM
by shahzaibjaan
0 Replies
590 Views
Last post October 03, 2018, 01:54:32 AM
by Rάήνίјάч1234




Back to top
Sitemap