+ albertlash.com »  :::: Bollywood Zone » Bollywood Movies (Original Rips) » High Resolution Movies
|- Dhadak (2018) Hindi 1080p WEB-Rip x264 AC3 DD5.1 - Esub ~ Ranvijay


Mastercard 10% Off

Dhadak (2018) Hindi 1080p WEB-Rip x264 AC3 DD5.1 - Esub ~ Ranvijay

0 Members and 1 Guest are viewing this topic.

October 09, 2018, 11:59:21 AM
  • Global Moderator
  • Legend Member
  • *****
  • Topic Author
  • Thank You: 10071
  • Reputation: 2077
  • Activity:
    100%
  • Country: in
  • Posts: 5233
  • Topics: 4319
  • Join Date: Jan 2014
  • ıllıllı ѕмoĸιng ιѕ good ғor нealтн ıllıllı :)


Dhadak (2018) Hindi 1080p WEB-Rip x264 AC3 DD5.1 - Esub ~ Ranvijay

Source :~ NbT (Thanks)


Quote
General
Format                                   : Matroska
Format version                           : Version 4 / Version 2
File size                                : 3.94 GiB
Duration                                 : 2 h 17 min
Overall bit rate                         : 4 102 kb/s
Movie name                               : Dhadak (2018) Hindi 1080p WEB-Rip x264 AC3 DD5.1 - Esub ~ Ranvijay

Video
ID                                       : 1
Format                                   : AVC
Format/Info                              : Advanced Video Codec
Format profile                           : [email protected]
Format settings                          : CABAC / 4 Ref Frames
Format settings, CABAC                   : Yes
Format settings, RefFrames               : 4 frames
Codec ID                                 : V_MPEG4/ISO/AVC
Duration                                 : 2 h 17 min
Bit rate                                 : 3 700 kb/s
Width                                    : 1 920 pixels
Height                                   : 812 pixels
Display aspect ratio                     : 2.35:1
Original display aspect ratio            : 2.35:1
Frame rate mode                          : Constant
Frame rate                               : 24.000 FPS
Color space                              : YUV
Chroma subsampling                       : 4:2:0
Bit depth                                : 8 bits
Scan type                                : Progressive
Bits/(Pixel*Frame)                       : 0.099
Stream size                              : 3.51 GiB (89%)
Title                                    : ~Ranvijay~

Audio
ID                                       : 2
Format                                   : AC-3
Format/Info                              : Audio Coding 3
Codec ID                                 : A_AC3
Duration                                 : 2 h 17 min
Bit rate mode                            : Constant
Bit rate                                 : 448 kb/s
Channel(s)                               : 6 channels
Channel positions                        : Front: L C R, Side: L R, LFE
Sampling rate                            : 48.0 kHz
Frame rate                               : 31.250 FPS (1536 SPF)
Bit depth                                : 16 bits
Compression mode                         : Lossy
Delay relative to video                  : -83 ms
Stream size                              : 441 MiB (11%)
Title                                    : ~Ranvijay~
Language                                 : Hindi
Service kind                             : Complete Main
Default                                  : Yes
Forced                                   : Yes

Text
ID                                       : 3
Format                                   : UTF-8
Codec ID                                 : S_TEXT/UTF8
Codec ID/Info                            : UTF-8 Plain Text
Duration                                 : 2 h 7 min
Bit rate                                 : 40 b/s
Count of elements                        : 1436
Stream size                              : 38.2 KiB (0%)
Title                                    : ~Ranvijay~
Language                                 : English
Default                                  : Yes
Forced                                   : Yes

Menu
00:00:00.000                             : en:Studio Logo
00:00:49.000                             : en:Disclaimer
00:01:10.000                             : en:Thank You Credits
00:01:34.000                             : en:Title Sequence
00:01:39.000                             : en:Scene 5
00:09:57.000                             : en:Scene 6
00:19:37.000                             : en:Scene 7
00:22:11.000                             : en:Scene 8
00:36:58.000                             : en:Scene 9
00:42:55.000                             : en:Scene 10
00:51:26.000                             : en:Scene 11
01:02:14.000                             : en:Scene 12
01:11:12.000                             : en:Scene 13
01:16:26.000                             : en:Scene 14
01:27:33.000                             : en:Scene 15
01:36:15.000                             : en:Scene 16
01:48:31.000                             : en:Scene 17
01:59:07.000                             : en:Scene 18
02:11:42.000                             : en:Acknowledgement
02:11:50.000                             : en:End Credits











:download:

Quote


File Leeched & Uploaded From




Don't walk as you are king, walk as you don't care who the king is....!!
Never argue with an idiot. They drag you down to their level and then beat you with experience?

Share this topic on FacebookShare this topic on GoogleShare this topic on MySpaceShare this topic on TwitterShare this topic on Yahoo

« Last Edit: October 09, 2018, 12:01:09 PM by Rάήνίјάч1234 »



Don't walk as you are king, walk as you don't care who the king is....!!

Thanks given by:


October 09, 2018, 12:01:32 PM
Reply #1
  • Team SSX
  • Legend Member
  • ***
  • Thank You: 3015
  • Reputation: 792
  • Activity:
    100%
  • Country: np
  • Posts: 1878
  • Topics: 1079
  • Join Date: Jul 2016
  • Love Forever !!
 :thumbs:        :10on10:           :woohoo:             :claps:

Tags:
 

Related Topics





Back to top
Sitemap