+ albertlash.com »  :::: Bollywood Zone » Bollywood Movies (Original Rips) » High Resolution Movies
|- Fanney Khan (2018) Hindi 1080p WEB-RIP x264 DDP5.1 - ESUB ~ Ranvijay


Electroncs Sale

Fanney Khan (2018) Hindi 1080p WEB-RIP x264 DDP5.1 - ESUB ~ Ranvijay

0 Members and 1 Guest are viewing this topic.

October 12, 2018, 04:37:19 PM
  • Global Moderator
  • Legend Member
  • *****
  • Topic Author
  • Thank You: 10088
  • Reputation: 2082
  • Activity:
    100%
  • Country: in
  • Posts: 5241
  • Topics: 4324
  • Join Date: Jan 2014
  • ıllıllı ѕмoĸιng ιѕ good ғor нealтн ıllıllı :)




Fanney Khan (2018) Hindi 1080p WEB-RIP x264 DDP5.1 - ESUB ~ Ranvijay

Buy RDP Online



Quote

Source                                   : NBT
Source                                   : NBT
Format                                   : Matroska
Format version                           : Version 4 / Version 2
File size                                : 4.99 GiB
Duration                                 : 2 h 9 min
Overall bit rate                         : 5 531 kb/s
Movie name                               : Fanney Khan (2018) Hindi 1080p WEB-RIP x264 DDP5.1 - ESUB ~ Ranvijay

Video
ID                                       : 1
Format                                   : AVC
Format/Info                              : Advanced Video Codec
Duration                                 : 2 h 9 min
Bit rate                                 : 4 890 kb/s
Width                                    : 1 912 pixels
Height                                   : 808 pixels
Display aspect ratio                     : 2.35:1
Frame rate mode                          : Constant
Frame rate                               : 24.000 FPS
Color space                              : YUV
Chroma subsampling                       : 4:2:0
Bit depth                                : 8 bits
Scan type                                : Progressive
Bits/(Pixel*Frame)                       : 0.132
Stream size                              : 4.41 GiB (88%)
Title                                    : ~Ranvijay~

Audio
ID                                       : 2
Format                                   : E-AC-3
Format/Info                              : Enhanced Audio Coding 3
Codec ID                                 : A_EAC3
Duration                                 : 2 h 9 min
Bit rate mode                            : Constant
Bit rate                                 : 640 kb/s
Channel(s)                               : 6 channels
Channel positions                        : Front: L C R, Side: L R, LFE
Sampling rate                            : 48.0 kHz
Frame rate                               : 187.500 FPS (256 SPF)
Compression mode                         : Lossy
Stream size                              : 592 MiB (12%)
Title                                    : ~Ranvijay~
Language                                 : Hindi
Service kind                             : Complete Main
Default                                  : Yes
Forced                                   : Yes

Text
ID                                       : 3
Format                                   : UTF-8
Codec ID                                 : S_TEXT/UTF8
Codec ID/Info                            : UTF-8 Plain Text
Duration                                 : 2 h 6 min
Bit rate                                 : 49 b/s
Count of elements                        : 2041
Stream size                              : 46.2 KiB (0%)
Title                                    : ~Ranvijay~
Language                                 : English
Default                                  : Yes
Forced                                   : Yes

Menu
00:00:00.000                             : en:Thank you Credits, Studio Logos
00:02:18.000                             : en:Scene 2
00:10:37.000                             : en:Scene 3
00:19:37.000                             : en:Scene 4
00:33:22.000                             : en:Scene 5
00:41:42.000                             : en:Scene 6
00:57:10.000                             : en:Scene 7
01:05:46.000                             : en:Scene 8
01:18:05.000                             : en:Scene 9
01:29:21.000                             : en:Scene 10
01:39:10.000                             : en:Scene 11
01:47:19.000                             : en:Scene 12
01:57:27.000                             : en:Scene 13
02:05:23.000                             : en:End Credits














:download:

Quote






SAMPLE


File Leeched & Uploaded From




Don't walk as you are king, walk as you don't care who the king is....!!
Never argue with an idiot. They drag you down to their level and then beat you with experience?

Share this topic on FacebookShare this topic on GoogleShare this topic on MySpaceShare this topic on TwitterShare this topic on Yahoo

« Last Edit: October 12, 2018, 04:38:47 PM by Rάήνίјάч1234 »



Don't walk as you are king, walk as you don't care who the king is....!!

Thanks given by:


October 12, 2018, 07:14:13 PM
Reply #1
  • Team SSX
  • Legend Member
  • ***
  • Thank You: 3086
  • Reputation: 802
  • Activity:
    100%
  • Country: np
  • Posts: 1896
  • Topics: 1090
  • Join Date: Jul 2016
  • Love Forever !!
 :awesome:   Quality      :10on10:                     :woohoo:                          :claps:         

Tags:
 

Related Topics





Back to top
Sitemap