+ albertlash.com »  :::: Bollywood Zone » Bollywood Movies (Original Rips) » High Resolution Movies
|- Soorma 2018 Hindi 1080p NF WEB-DL H264 DDP 5.1 - NbT


Mastercard 10% Off

Soorma 2018 Hindi 1080p NF WEB-DL H264 DDP 5.1 - NbT

0 Members and 1 Guest are viewing this topic.

October 13, 2018, 10:16:06 AM
  • Global Moderator
  • Legend Member
  • *****
  • Topic Author
  • Thank You: 10068
  • Reputation: 2077
  • Activity:
    100%
  • Country: in
  • Posts: 5233
  • Topics: 4319
  • Join Date: Jan 2014
  • ıllıllı ѕмoĸιng ιѕ good ғor нealтн ıllıllı :)
Soorma 2018 Hindi 1080p NF WEB-DL H264 DDP 5.1 - NbT

Quote
Format                      : Matroska
Format version              : Version 4
File size                   : 5.47 GiB
Duration                    : 2 h 10 min
Overall bit rate mode       : Variable
Overall bit rate            : 5 990 kb/s
Writing application         : mkvmerge v27.0.0 ('Metropolis') 64-bit
Writing library             : libebml v1.3.6 + libmatroska v1.4.9
Cover                       : Yes
Attachments                 : Cover.jpg / Cover_thumb.jpg

Video
ID                          : 1
Format                      : AVC
Format/Info                 : Advanced Video Codec
Format profile              : [email protected]
Format settings             : CABAC / 3 Ref Frames
Format settings, CABAC      : Yes
Format settings, ReFrames   : 3 frames
Codec ID                    : V_MPEG4/ISO/AVC
Duration                    : 2 h 10 min
Bit rate mode               : Variable
Bit rate                    : 5 360 kb/s
Maximum bit rate            : 8 040 kb/s
Width                       : 1 920 pixels
Height                      : 1 080 pixels
Display aspect ratio        : 16:9
Frame rate mode             : Constant
Frame rate                  : 24.000 FPS
Color space                 : YUV
Chroma subsampling          : 4:2:0
Bit depth                   : 8 bits
Scan type                   : Progressive
Bits/(Pixel*Frame)          : 0.108
Stream size                 : 4.89 GiB (89%)
Language                    : Hindi
Default                     : Yes
Forced                      : No

Audio
ID                          : 2
Format                      : E-AC-3
Format/Info                 : Enhanced AC-3
Commercial name             : Dolby Digital Plus
Codec ID                    : A_EAC3
Duration                    : 2 h 10 min
Bit rate mode               : Constant
Bit rate                    : 640 kb/s
Channel(s)                  : 6 channels
Channel layout              : L R C LFE Ls Rs
Sampling rate               : 48.0 kHz
Frame rate                  : 31.250 FPS (1536 SPF)
Compression mode            : Lossy
Stream size                 : 599 MiB (11%)
Title                       : Hindi
Language                    : Hindi
Service kind                : Complete Main
Default                     : No
Forced                      : No

Text
ID                          : 3
Format                      : UTF-8
Codec ID                    : S_TEXT/UTF8
Codec ID/Info               : UTF-8 Plain Text
Duration                    : 2 h 10 min
Bit rate                    : 63 b/s
Count of elements           : 1805
Stream size                 : 60.2 KiB (0%)
Title                       : English [Full]
Language                    : English
Default                     : Yes
Forced                      : No





:download:

Quote


File Leeched & Uploaded From




Don't walk as you are king, walk as you don't care who the king is....!!
Never argue with an idiot. They drag you down to their level and then beat you with experience?

Share this topic on FacebookShare this topic on GoogleShare this topic on MySpaceShare this topic on TwitterShare this topic on Yahoo




Don't walk as you are king, walk as you don't care who the king is....!!

October 13, 2018, 11:28:12 AM
Reply #1
  • Team SSX
  • Legend Member
  • ***
  • Thank You: 3009
  • Reputation: 789
  • Activity:
    100%
  • Country: np
  • Posts: 1877
  • Topics: 1079
  • Join Date: Jul 2016
  • Love Forever !!
« Last Edit: October 13, 2018, 11:29:02 AM by Special26 »

October 13, 2018, 02:44:14 PM
Reply #2
  • Elite Member
  • ***
  • Thank You: 0
  • Reputation: 0
  • Activity:
    1.8%
  • Posts: 460
  • Topics: 0
  • Join Date: Jul 2012
  • ShareSpark Member

October 13, 2018, 10:52:03 PM
Reply #3
  • Hero Member
  • ***
  • Thank You: 0
  • Reputation: 7
  • Activity:
    8%
  • Country: au
  • Posts: 386
  • Topics: 0
  • Join Date: Oct 2017
  • ShareSpark Member

October 14, 2018, 09:24:22 AM
Reply #4
  • Devoted Member
  • **
  • Thank You: 39
  • Reputation: 12
  • Activity:
    1.2%
  • Country: in
  • Posts: 180
  • Topics: 47
  • Join Date: Aug 2012
  • ShareSpark Member

Tags:
 

Related Topics

  Subject / Started by Replies Last post
0 Replies
188 Views
Last post October 13, 2018, 05:45:49 PM
by Special26
0 Replies
218 Views
Last post October 13, 2018, 06:26:06 PM
by Special26
0 Replies
47 Views
Last post October 17, 2018, 01:45:52 PM
by RoBi007
0 Replies
64 Views
Last post October 17, 2018, 01:45:56 PM
by shahzaibjaan
0 Replies
41 Views
Last post October 20, 2018, 04:16:50 PM
by BUNGILI




Back to top
Sitemap