+ albertlash.com »  :::: Bollywood Zone » Bollywood Movies (Original Rips) » High Resolution Movies
|- Sanju (2018) Hindi 1080p WEB-RIP x264 DDP 5.1 - ESUB ~ Ranvijay


Mastercard 10% Off

Sanju (2018) Hindi 1080p WEB-RIP x264 DDP 5.1 - ESUB ~ Ranvijay

0 Members and 1 Guest are viewing this topic.

October 15, 2018, 09:03:24 PM
  • Global Moderator
  • Legend Member
  • *****
  • Topic Author
  • Thank You: 10068
  • Reputation: 2077
  • Activity:
    100%
  • Country: in
  • Posts: 5233
  • Topics: 4319
  • Join Date: Jan 2014
  • ıllıllı ѕмoĸιng ιѕ good ғor нealтн ıllıllı :)




Sanju (2018) Hindi 1080p WEB-RIP x264 DDP 5.1 - ESUB ~ Ranvijay

Buy RDP Online



Quote

Source                                   : NbT
Format                                   : Matroska
Format version                           : Version 4 / Version 2
File size                                : 5.00 GiB
Duration                                 : 2 h 38 min
Overall bit rate                         : 4 501 kb/s
Movie name                               : Sanju (2018) Hindi 1080p WEB-RIP x264 DDP 5.1 - ESUB ~ Ranvijay

Video
ID                                       : 1
Format                                   : AVC
Format/Info                              : Advanced Video Codec
Duration                                 : 2 h 38 min
Bit rate                                 : 3 860 kb/s
Width                                    : 1 856 pixels
Height                                   : 800 pixels
Display aspect ratio                     : 2.35:1
Frame rate mode                          : Constant
Frame rate                               : 24.000 FPS
Color space                              : YUV
Chroma subsampling                       : 4:2:0
Bit depth                                : 8 bits
Scan type                                : Progressive
Bits/(Pixel*Frame)                       : 0.108
Stream size                              : 4.28 GiB (86%)
Title                                    : ~Ranvijay~

Audio
ID                                       : 2
Format                                   : E-AC-3
Format/Info                              : Enhanced Audio Coding 3
Codec ID                                 : A_EAC3
Duration                                 : 2 h 38 min
Bit rate mode                            : Constant
Bit rate                                 : 640 kb/s
Channel(s)                               : 6 channels
Channel positions                        : Front: L C R, Side: L R, LFE
Sampling rate                            : 48.0 kHz
Frame rate                               : 187.500 FPS (256 SPF)
Compression mode                         : Lossy
Stream size                              : 728 MiB (14%)
Title                                    : ~Ranvijay~
Language                                 : Hindi
Service kind                             : Complete Main
Default                                  : Yes
Forced                                   : Yes

Text
ID                                       : 3
Format                                   : UTF-8
Codec ID                                 : S_TEXT/UTF8
Codec ID/Info                            : UTF-8 Plain Text
Duration                                 : 2 h 37 min
Bit rate                                 : 51 b/s
Count of elements                        : 1857
Stream size                              : 59.3 KiB (0%)
Title                                    : ~Ranvijay~
Language                                 : English
Default                                  : Yes
Forced                                   : Yes





















:download:

Quote


File Leeched & Uploaded From




Don't walk as you are king, walk as you don't care who the king is....!!
Never argue with an idiot. They drag you down to their level and then beat you with experience?

Share this topic on FacebookShare this topic on GoogleShare this topic on MySpaceShare this topic on TwitterShare this topic on Yahoo

« Last Edit: October 15, 2018, 09:04:12 PM by Rάήνίјάч1234 »



Don't walk as you are king, walk as you don't care who the king is....!!

Thanks given by:


October 15, 2018, 09:12:31 PM
Reply #1
  • Team SSX
  • Legend Member
  • ***
  • Thank You: 2996
  • Reputation: 788
  • Activity:
    100%
  • Country: np
  • Posts: 1877
  • Topics: 1079
  • Join Date: Jul 2016
  • Love Forever !!
                  :10on10:               :claps:

October 15, 2018, 10:35:59 PM
Reply #2
  • Devoted Member
  • **
  • Thank You: 0
  • Reputation: 6
  • Activity:
    34.8%
  • Country: in
  • Posts: 172
  • Topics: 0
  • Join Date: Sep 2018
  • ShareSpark Member

Tags:
 

Related Topics





Back to top
Sitemap